<?xml version="1.0" standalone="no"?>
<!DOCTYPE svg PUBLIC "-//W3C//DTD SVG 1.1//EN" "http://www.w3.org/Graphics/SVG/1.1/DTD/svg11.dtd" >
<svg xmlns="http://www.w3.org/2000/svg">
<metadata>
<json>
<![CDATA[
{
	"fontFamily": "auth",
	"majorVersion": 1,
	"minorVersion": 0,
	"description": "Font generated by IcoMoon.",
	"version": "Version 1.0",
	"fontId": "auth",
	"psName": "auth",
	"subFamily": "Regular",
	"fullName": "auth"
}
]]>
</json>
</metadata>
<defs>
<font id="auth" horiz-adv-x="1024">
<font-face units-per-em="1024" ascent="960" descent="-64" />
<missing-glyph horiz-adv-x="1024" />
<glyph unicode="&#x20;" horiz-adv-x="512" d="" />
<glyph unicode="&#xe900;" glyph-name="mother" data-tags="mother" d="M772.701 404.203l-104.825 299.208c-6.799 19.41-25.68 29.5-45.326 29.5h-221.104c-19.646 0-38.524-10.091-45.326-29.5l-104.825-299.208c-7.647-21.827 1.865-46.599 22.907-56.201 6.058-2.763 12.341-4.050 18.499-4.050 18.309 0 35.445 11.43 41.842 29.686l51.852 148v-30.567l-65.976-224.209c-1.792-13.176 4.698-26.541 17.368-33.071 4.621-2.38 9.828-3.411 15.024-3.411h34.467v-239.679c0-28.646 22.013-53.295 50.629-54.642 30.551-1.44 55.772 22.907 55.772 53.142v222.863c0 10.117 8.202 18.316 18.316 18.316v0c10.117 0 18.316-8.202 18.316-18.316v-221.36c0-28.646 22.016-53.295 50.629-54.642 30.551-1.44 55.772 22.907 55.772 53.142v241.182h34.467c5.2 0 10.403 1.031 15.024 3.411 12.667 6.53 19.16 19.895 17.368 33.071l-65.972 224.206v30.567l51.852-148c6.397-18.256 23.532-29.686 41.842-29.686 6.154 0 12.444 1.287 18.499 4.053 21.045 9.595 30.554 34.368 22.907 56.194zM609.095 863.6c0-53.24-43.16-96.4-96.4-96.4s-96.4 43.16-96.4 96.4c0 53.24 43.16 96.4 96.4 96.4s96.4-43.16 96.4-96.4z" />
<glyph unicode="&#xe901;" glyph-name="withdrow" data-tags="withdrow" d="M930.899 837.824v-685.198c0.003-4.513-1.302-8.934-3.767-12.721-2.465-3.784-5.973-6.773-10.107-8.595l-405.036-179.248-405.039 179.199c-4.146 1.833-7.666 4.831-10.13 8.637s-3.764 8.242-3.74 12.777v685.148h-93.091v93.091h1024v-93.091h-93.089zM186.17 837.824v-639.767l325.82-144.294 325.818 144.294v639.767h-651.637zM325.806 651.643h372.364v-93.092h-372.364v93.092zM325.806 465.461h372.364v-93.092h-372.364v93.092z" />
<glyph unicode="&#xe902;" glyph-name="ban" data-tags="ban" d="M512 960c-282.309 0-512-229.671-512-512s229.691-512 512-512c282.309 0 512 229.671 512 512s-229.691 512-512 512zM512-24.619c-260.588 0-472.615 212.030-472.615 472.619s212.027 472.615 472.615 472.615c260.588 0 472.619-212.027 472.619-472.615s-212.030-472.619-472.619-472.619zM703.149 639.142c-7.7 7.7-20.145 7.7-27.844 0l-163.308-163.309-163.308 163.309c-7.7 7.7-20.145 7.7-27.844 0s-7.7-20.145 0-27.845l163.308-163.309-163.308-163.309c-7.7-7.7-7.7-20.145 0-27.845 3.84-3.84 8.881-5.769 13.922-5.769s10.083 1.929 13.922 5.769l163.308 163.309 163.308-163.309c3.84-3.84 8.881-5.769 13.922-5.769s10.082 1.929 13.922 5.769c7.7 7.7 7.7 20.145 0 27.845l-163.307 163.309 163.307 163.309c7.7 7.7 7.7 20.145 0 27.845z" />
<glyph unicode="&#xe903;" glyph-name="back" data-tags="back" d="M334.546 75.040l-356.108 362.11 356.108 362.11 79.101-80.479-230.232-234.189h595.367c29.924 0.294 58.509 12.441 79.487 33.779s32.641 50.125 32.427 80.048v227.519h111.736v-227.519c0.427-59.812-22.872-117.353-64.797-160.018-41.92-42.664-99.047-66.969-158.855-67.591h-576.869l211.779-215.292-79.145-80.479z" />
<glyph unicode="&#xe904;" glyph-name="shirt" data-tags="shirt" d="M565.896 16.845h323.368v215.576h-215.58v107.791h215.58v431.155h-107.791v-269.471l-215.576 86.229v-571.281zM458.104 16.845v571.281l-215.576-86.229v269.471h-107.79v-754.523h323.366zM242.529 879.156v53.895h538.944v-53.895h161.684c14.296 0 28.004-5.678 38.109-15.786 10.109-10.108 15.787-23.816 15.787-38.109v-862.314c0-14.293-5.678-28.004-15.787-38.109-10.105-10.109-23.813-15.787-38.109-15.787h-862.313c-14.294 0-28.002 5.678-38.109 15.787-10.108 10.105-15.786 23.816-15.786 38.109v862.314c0 14.294 5.678 28.002 15.786 38.109s23.816 15.786 38.109 15.786h161.685zM512 663.58l188.629 161.683h-377.26l188.629-161.683z" />
<glyph unicode="&#xe905;" glyph-name="brush" data-tags="brush" d="M134.737 825.263v-161.683h754.526v161.683h-754.526zM80.843 933.052h862.314c14.296 0 28.004-5.678 38.109-15.786 10.109-10.108 15.787-23.816 15.787-38.109v-269.473c0-14.293-5.678-28.004-15.787-38.109-10.105-10.109-23.813-15.787-38.109-15.787h-862.314c-14.294 0-28.002 5.678-38.109 15.787-10.108 10.105-15.786 23.816-15.786 38.109v269.473c0 14.294 5.678 28.002 15.786 38.109s23.816 15.786 38.109 15.786zM188.632 448h323.368c14.293 0 28.004-5.678 38.109-15.787 10.109-10.105 15.787-23.813 15.787-38.109v-161.684h53.893v-323.368h-215.577v323.368h53.893v107.791h-323.367c-14.294 0-28.002 5.678-38.109 15.783-10.108 10.109-15.786 23.816-15.786 38.109v107.791h107.789v-53.896zM820.922 354.653l95.287 95.287 95.287-95.287c18.84-18.842 31.667-42.853 36.864-68.987s2.525-53.223-7.674-77.841c-10.199-24.618-27.47-45.659-49.624-60.463-22.157-14.804-48.207-22.704-74.853-22.704s-52.696 7.9-74.853 22.704c-22.154 14.804-39.426 35.846-49.624 60.463s-12.87 51.706-7.674 77.841c5.197 26.135 18.024 50.145 36.864 68.987z" />
<glyph unicode="&#xe906;" glyph-name="smile" data-tags="smile" d="M511.99-64.004c-282.778 0-512.001 229.22-512.001 511.998s229.223 512.002 512.001 512.002c282.778 0 511.998-229.224 511.998-512.002s-229.22-511.998-511.998-511.998zM511.99 38.394c108.632 0 212.816 43.156 289.631 119.968 76.816 76.816 119.968 181 119.968 289.631 0 108.635-43.152 212.816-119.968 289.631s-181 119.97-289.631 119.97c-108.632 0-212.816-43.154-289.631-119.97s-119.97-180.996-119.97-289.631c0-108.632 43.154-212.816 119.97-289.631 76.816-76.812 181-119.968 289.631-119.968zM255.988 396.796h102.402c0-40.738 16.183-79.807 44.987-108.613 28.806-28.804 67.876-44.987 108.613-44.987s79.805 16.183 108.611 44.987c28.806 28.806 44.989 67.876 44.989 108.613h102.398c0-67.897-26.972-133.012-74.981-181.021s-113.123-74.981-181.018-74.981c-67.897 0-133.012 26.972-181.021 74.981s-74.981 113.123-74.981 181.021zM307.19 499.194c-20.368 0-39.902 8.092-54.307 22.493-14.401 14.405-22.493 33.94-22.493 54.307s8.092 39.902 22.493 54.307c14.405 14.401 33.94 22.493 54.307 22.493 20.37 0 39.902-8.092 54.307-22.493 14.401-14.405 22.493-33.94 22.493-54.307s-8.092-39.902-22.493-54.307c-14.405-14.401-33.936-22.493-54.307-22.493zM716.788 499.194c-20.368 0-39.902 8.092-54.304 22.493-14.405 14.405-22.496 33.94-22.496 54.307s8.092 39.902 22.496 54.307c14.401 14.401 33.936 22.493 54.304 22.493 20.37 0 39.905-8.092 54.307-22.493 14.405-14.405 22.493-33.94 22.493-54.307s-8.088-39.902-22.493-54.307c-14.401-14.401-33.936-22.493-54.307-22.493z" />
<glyph unicode="&#xe907;" glyph-name="hzcheeto" data-tags="hzcheeto" d="M403.909 398.061h-110.228c-11.781-33.338-34.97-61.437-65.465-79.329s-66.336-24.428-101.186-18.454c-34.849 5.978-66.463 24.084-89.254 51.117s-35.291 61.252-35.291 96.608c0 35.358 12.5 69.579 35.291 96.612s54.405 45.135 89.254 51.114c34.85 5.978 70.689-0.557 101.186-18.454 30.496-17.892 53.685-45.989 65.465-79.327h110.228l173.005 299.663h158.321c11.768 33.343 34.941 61.453 65.428 79.361s66.325 24.462 101.176 18.503c34.854-5.96 66.477-24.048 89.282-51.070s35.321-61.234 35.339-96.593c0.015-35.358-12.466-69.584-35.243-96.628s-54.383-45.163-89.228-51.16c-34.848-5.993-70.691 0.524-101.196 18.403s-53.709 45.964-65.506 79.296h-100.738l-144.138-249.669 144.19-249.769h100.687c11.783 33.338 34.971 61.434 65.467 79.329 30.497 17.892 66.337 24.428 101.185 18.451 34.851-5.978 66.465-24.081 89.254-51.114 22.792-27.033 35.291-61.255 35.291-96.612s-12.499-69.576-35.291-96.608c-22.789-27.033-54.404-45.138-89.254-51.117-34.848-5.975-70.688 0.56-101.185 18.454s-53.685 45.993-65.467 79.329h-158.372l-173.005 299.663zM876.576 198.284c-13.245 0-25.948-5.263-35.316-14.629s-14.629-22.070-14.629-35.316 5.263-25.948 14.629-35.316c9.368-9.368 22.070-14.626 35.316-14.626s25.951 5.259 35.316 14.626c9.368 9.368 14.629 22.070 14.629 35.316s-5.263 25.951-14.629 35.316c-9.365 9.368-22.070 14.629-35.316 14.629zM152.39 497.948c-13.247 0-25.949-5.263-35.316-14.629-9.367-9.365-14.628-22.070-14.628-35.316s5.263-25.948 14.628-35.316c9.367-9.368 22.069-14.626 35.316-14.626s25.949 5.259 35.316 14.626c9.367 9.368 14.628 22.070 14.628 35.316s-5.263 25.951-14.628 35.316c-9.367 9.368-22.069 14.629-35.316 14.629zM876.576 797.611c-13.245 0-25.948-5.262-35.316-14.628s-14.629-22.070-14.629-35.316c0-13.247 5.263-25.949 14.629-35.316s22.070-14.628 35.316-14.628c13.245 0 25.951 5.262 35.316 14.628 9.368 9.367 14.629 22.069 14.629 35.316s-5.263 25.949-14.629 35.316c-9.365 9.367-22.070 14.628-35.316 14.628z" />
<glyph unicode="&#xe908;" glyph-name="father" data-tags="father" d="M510.342 787.618c47.603 0 86.194 38.59 86.194 86.194s-38.59 86.193-86.194 86.193c-47.603 0-86.193-38.59-86.193-86.193s38.589-86.194 86.193-86.194zM540.381 746.519c-21.476 4.36-44.827 4.169-65.922-0.803-143.298-16.791-189.828-182.655-176.689-309.124 5.699-54.676 91.892-55.25 86.136 0-4.781 46.088-2.735 115.643 21.764 165.080 0-60.088 0-120.177 0-180.245 0-2.125 0.21-4.111 0.306-6.159-0.057-0.973-0.287-1.797-0.287-2.79 0-143.033-0.248-286.005-6.158-428.922-2.62-63.53 95.889-63.279 98.49 0 4.628 112.011 5.795 224.079 6.063 336.167 4.666-0.307 9.333-0.307 13.999-0.036 0.287-112.088 1.415-224.156 6.005-336.131 2.62-63.279 101.129-63.53 98.49 0-5.91 142.916-6.12 285.887-6.12 428.922 0 4.434-0.593 8.468-1.492 12.355-0.134 62.095-2.505 124.249-1.778 186.308 29.336-49.666 32.014-125.417 26.927-174.51-5.775-55.209 80.437-54.656 86.136 0 13.445 129.090-35.322 299.257-185.869 309.892z" />
<glyph unicode="&#xe909;" glyph-name="locked" data-tags="locked" d="M902.001 55.999h-780.001v-119.999h780.001v119.999zM122 540v-423.999h780.001v423.999h-780.001zM542 243.526v-65.526h-60v65.526c-34.845 12.426-60 45.414-60 84.475 0 49.626 40.371 89.999 89.999 89.999s89.999-40.373 89.999-89.999c0-39.060-25.155-72.049-60-84.475zM512 358.001c-16.551 0-30-13.449-30-30 0-16.553 13.449-30.001 30-30.001s30 13.449 30 30.001c0 16.551-13.449 30-30 30zM512 960c-181.961 0-329.999-148.038-329.999-329.999v-30.001h119.999v30.001c0 115.782 94.218 209.999 210 209.999s210-94.217 210-209.999v-30.001h119.999v30.001c0 181.961-148.038 329.999-329.999 329.999z" />
<glyph unicode="&#xe90a;" glyph-name="female" data-tags="female" d="M527.012 697.738h153.17l-162.365-162.367c-113.354 75.491-267.857 63.249-367.85-36.744-113.955-113.955-113.955-298.711 0-412.666s298.713-113.956 412.665 0c99.994 99.994 112.236 254.495 36.746 367.847l162.365 162.367v-153.17h115.348l-3.241 347.228-346.839 2.854v-115.347zM227.991 163.983c-70.863 70.866-70.863 185.754 0 256.62 70.863 70.862 185.754 70.862 256.617 0 70.865-70.866 70.865-185.754 0-256.62-70.863-70.861-185.754-70.861-256.617 0z" />
<glyph unicode="&#xe90b;" glyph-name="man" data-tags="man" d="M803.799 668.2c0 161.156-130.641 291.8-291.799 291.8s-291.8-130.644-291.8-291.8c0-141.412 100.596-259.317 234.126-286.089v-206.418h-123.782v-115.348h123.782v-124.344h115.348v124.344h123.782v115.348h-123.782v206.418c133.532 26.772 234.125 144.677 234.125 286.089zM330.544 668.2c0 100.216 81.24 181.456 181.456 181.456s181.456-81.24 181.456-181.456c0-100.216-81.24-181.456-181.456-181.456s-181.456 81.24-181.456 181.456z" />
<glyph unicode="&#xe90c;" glyph-name="warning" data-tags="warning" d="M511.983 258.234c-28.628 0-52.625-23.997-52.625-52.625s23.997-52.625 52.625-52.625c27.575 0 52.625 23.997 51.362 51.362 1.263 30.1-22.523 53.888-51.362 53.888zM999.083 71.729c33.048 57.045 33.258 125.037 0.42 181.871l-329.641 570.874c-32.628 57.466-91.568 91.567-157.664 91.567s-125.037-34.311-157.664-91.357l-330.063-571.504c-32.838-57.467-32.627-125.879 0.631-182.924 32.838-56.414 91.567-90.305 157.242-90.305h658.442c65.886 0 125.036 34.313 158.295 91.778zM927.512 112.988c-18.313-31.575-50.729-50.309-86.936-50.309h-658.441c-35.785 0-67.991 18.313-85.884 49.256-18.103 31.365-18.313 68.833-0.211 100.408l330.062 571.295c17.893 31.364 49.889 49.888 86.095 49.888 35.995 0 68.202-18.734 86.095-50.1l329.851-571.293c17.683-30.734 17.473-67.782-0.631-99.145zM498.934 627.656c-25.049-7.156-40.625-29.891-40.625-57.465 1.263-16.63 2.316-33.469 3.579-50.099 3.579-63.36 7.156-125.457 10.735-188.819 1.263-21.47 17.893-37.047 39.364-37.047s38.31 16.63 39.363 38.31c0 13.053 0 25.050 1.263 38.311 2.316 40.627 4.842 81.253 7.158 121.88 1.263 26.312 3.577 52.625 4.84 78.937 0 9.472-1.263 17.893-4.84 26.312-10.737 23.576-35.785 35.575-60.836 29.681z" />
<glyph unicode="&#xe90d;" glyph-name="person" data-tags="person" d="M121.904-64c0 103.46 41.098 202.683 114.256 275.84 73.157 73.159 172.379 114.256 275.84 114.256s202.683-41.098 275.84-114.256c73.159-73.157 114.256-172.379 114.256-275.84h-97.524c0 77.593-30.824 152.010-85.693 206.879-54.866 54.866-129.283 85.693-206.879 85.693-77.593 0-152.010-30.826-206.879-85.693-54.866-54.868-85.693-129.286-85.693-206.879h-97.524zM512 374.857c-161.647 0-292.571 130.927-292.571 292.571s130.927 292.571 292.571 292.571c161.647 0 292.571-130.927 292.571-292.571s-130.927-292.571-292.571-292.571zM512 472.381c107.764 0 195.049 87.284 195.049 195.049s-87.284 195.048-195.049 195.048c-107.764 0-195.049-87.284-195.049-195.048s87.284-195.049 195.049-195.049z" />
<glyph unicode="&#xe90e;" glyph-name="name" data-tags="name" d="M368.403 470.837c15.558 18.055 24.974 41.549 24.974 67.197 0 56.832-46.234 103.066-103.066 103.066-56.835 0-103.072-46.234-103.072-103.066 0-25.648 9.419-49.142 24.977-67.197-36.139-19.331-60.781-57.455-60.781-101.224v-90.033c0-13.631 11.047-24.678 24.677-24.678h228.396c13.629 0 24.677 11.047 24.677 24.678v90.033c0.003 43.769-24.639 81.893-60.781 101.224zM290.311 591.746c29.617 0 53.712-24.096 53.712-53.712 0-29.435-23.801-53.419-53.166-53.712h-1.092c-29.368 0.294-53.171 24.277-53.171 53.712 0.002 29.617 24.098 53.712 53.717 53.712zM379.832 304.256h-179.041v65.357c0 36.038 29.315 65.353 65.35 65.353h23.419c0.498 0 1.005 0 1.505 0h23.415c36.038 0 65.353-29.315 65.353-65.353v-65.357h-0.002zM536.8 556.721c0 13.631 11.047 24.678 24.677 24.678h133.398c13.631 0 24.678-11.047 24.678-24.678 0-13.629-11.047-24.677-24.678-24.677h-133.398c-13.626 0-24.677 11.047-24.677 24.677zM919.53 838.171h-66.92c-0.326 0.005-0.652 0.005-0.978 0h-128.561c-0.326 0.005-0.654 0.005-0.98 0h-128.558c-0.329 0.005-0.657 0.005-0.981 0h-128.57c-0.323 0.005-0.643 0.005-0.969 0h-128.561c-0.326 0.005-0.652 0.005-0.98 0h-128.558c-0.326 0.005-0.652 0.005-0.978 0h-99.47c-57.603 0-104.465-46.865-104.465-104.465v-571.402c0-57.605 46.862-104.472 104.465-104.472h66.925c0.331-0.007 0.657-0.005 0.981 0h128.558c0.333-0.007 0.659-0.005 0.981 0h128.565c0.323-0.005 0.647-0.005 0.969 0h128.57c0.324-0.005 0.647-0.005 0.971 0h128.56c0.166-0.002 0.329-0.005 0.492-0.005s0.329 0.003 0.492 0.005h128.56c0.328-0.005 0.654-0.005 0.976 0h99.459c57.605 0 104.47 46.867 104.47 104.472v571.402c0.005 57.6-46.86 104.465-104.465 104.465zM974.645 162.304c0-30.392-24.724-55.117-55.115-55.117h-58.938l13.315 25.146c6.378 12.046 1.782 26.979-10.26 33.359-12.046 6.381-26.981 1.783-33.357-10.262l-25.544-48.242h-73.692l13.315 25.146c6.378 12.046 1.785 26.979-10.26 33.359-12.051 6.378-26.977 1.785-33.359-10.26l-25.547-48.244h-73.692l13.315 25.146c6.378 12.046 1.785 26.979-10.26 33.359-12.046 6.378-26.981 1.785-33.359-10.26l-25.547-48.244h-73.692l13.315 25.146c6.378 12.046 1.785 26.979-10.26 33.359-12.047 6.378-26.977 1.785-33.359-10.26l-25.545-48.244h-73.692l13.314 25.146c6.378 12.046 1.785 26.979-10.26 33.359-12.051 6.378-26.977 1.785-33.359-10.26l-25.545-48.244h-73.682l13.315 25.146c6.378 12.046 1.785 26.979-10.26 33.359-12.046 6.378-26.979 1.785-33.359-10.26l-25.547-48.244h-52.579c-30.389 0-55.11 24.724-55.11 55.117v571.402c0 30.389 24.724 55.11 55.11 55.11h58.946l-13.315-25.143c-6.378-12.045-1.785-26.978 10.26-33.358 12.042-6.375 26.976-1.782 33.359 10.26l25.547 48.241h73.685l-13.314-25.143c-6.378-12.045-1.785-26.978 10.26-33.358 12.044-6.375 26.977-1.782 33.359 10.26l25.545 48.241h73.69l-13.315-25.146c-6.378-12.045-1.782-26.978 10.264-33.356 12.042-6.375 26.979-1.782 33.355 10.26l25.544 48.241h73.696l-13.315-25.143c-6.378-12.045-1.785-26.978 10.26-33.358 12.042-6.375 26.977-1.782 33.359 10.26l25.545 48.241h73.694l-13.315-25.143c-6.378-12.045-1.785-26.978 10.26-33.358 12.046-6.375 26.977-1.782 33.359 10.26l25.545 48.241h73.692l-13.314-25.143c-6.378-12.045-1.785-26.978 10.26-33.358 12.044-6.375 26.977-1.782 33.359 10.26l25.545 48.241h52.577c30.391 0 55.115-24.724 55.115-55.11v-571.402h-0.014zM876.774 339.284c0-13.629-11.047-24.677-24.677-24.677h-290.621c-13.629 0-24.677 11.047-24.677 24.677s11.047 24.678 24.677 24.678h290.621c13.629 0 24.677-11.047 24.677-24.678zM876.774 437.325c0-13.629-11.047-24.677-24.677-24.677h-290.621c-13.629 0-24.677 11.047-24.677 24.677s11.047 24.677 24.677 24.677h290.621c13.629 0 24.677-11.049 24.677-24.677z" />
<glyph unicode="&#xe90f;" glyph-name="exitplace" data-tags="exitplace" d="M160.863 802.252l176.987-619.406 151.734 303.463 281.353 112.551-610.074 203.392zM57.745 941.806l938.644-312.848c4.859-1.611 9.104-4.676 12.162-8.779 3.057-4.106 4.778-9.050 4.931-14.166s-1.271-10.155-4.079-14.435c-2.807-4.278-6.863-7.591-11.616-9.488l-435.882-174.341-220.859-441.721c-2.249-4.498-5.802-8.213-10.197-10.657-4.394-2.442-9.425-3.503-14.431-3.039-5.006 0.466-9.757 2.431-13.627 5.64s-6.681 7.514-8.064 12.348l-268.875 940.99c-1.245 4.372-1.273 9-0.081 13.387s3.561 8.363 6.849 11.502c3.288 3.139 7.37 5.32 11.807 6.308s9.059 0.746 13.368-0.701h-0.050z" />
<glyph unicode="&#xe910;" glyph-name="fraction" data-tags="fraction" d="M536.785 911.651c34.108-96.368 101.072-177.642 189.137-229.553s191.601-71.143 292.437-54.317c-3.874-45.955-22.267-89.488-52.506-124.306-30.242-34.818-70.773-59.117-115.733-69.385v-343.523l96.604-0.048v-96.604h-869.434v96.604h96.604v343.571c-44.963 10.273-85.496 34.572-115.745 69.388s-48.648 78.347-52.539 124.303c100.841-16.853 204.396 2.36 292.48 54.263s155.067 133.181 189.187 229.559l49.509 0.048zM753.515 428.68h-483.019v-338.113h483.019v338.113z" />
<glyph unicode="&#xe911;" glyph-name="home" data-tags="home" d="M884.363 37.277c0-12.348-4.904-24.179-13.633-32.912s-20.568-13.637-32.913-13.637h-651.635c-12.345 0-24.184 4.906-32.913 13.637s-13.633 20.564-13.633 32.912v418.908h-139.636l480.675 436.968c8.57 7.798 19.739 12.119 31.325 12.119s22.755-4.321 31.325-12.119l480.675-436.968h-139.636v-418.908zM791.272 83.822v458.146l-279.272 253.859-279.272-253.859v-458.146h558.545zM512 176.913l-156.346 156.346c-9.725 9.725-17.438 21.271-22.702 33.976s-7.972 26.325-7.972 40.078c0 13.753 2.709 27.372 7.972 40.078s12.976 24.251 22.702 33.976c9.725 9.725 21.271 17.438 33.976 22.702s26.325 7.972 40.078 7.972c13.753 0 27.372-2.709 40.078-7.972s24.251-12.976 33.976-22.702l8.239-8.239 8.239 8.239c9.725 9.725 21.271 17.438 33.976 22.702s26.325 7.972 40.078 7.972c13.753 0 27.372-2.709 40.078-7.972s24.251-12.976 33.976-22.702c9.725-9.725 17.438-21.271 22.702-33.976s7.972-26.325 7.972-40.078c0-13.753-2.709-27.372-7.972-40.078s-12.976-24.251-22.702-33.976l-156.346-156.346z" />
<glyph unicode="&#xe912;" glyph-name="dollar" data-tags="dollar" d="M512-64c-282.777 0-512 229.224-512 512s229.223 512 512 512c282.775 0 512-229.223 512-512 0-282.775-229.224-512-512-512zM512 38.401c108.634 0 212.816 43.156 289.632 119.968 76.812 76.817 119.968 180.998 119.968 289.632s-43.156 212.816-119.968 289.631c-76.817 76.814-180.998 119.969-289.632 119.969s-212.816-43.154-289.631-119.969c-76.814-76.816-119.969-180.997-119.969-289.631s43.154-212.816 119.969-289.632c76.816-76.812 180.997-119.968 289.631-119.968zM332.801 345.6h281.6c6.791 0 13.3 2.695 18.101 7.5 4.805 4.8 7.5 11.309 7.5 18.101s-2.695 13.3-7.5 18.101c-4.8 4.805-11.309 7.5-18.101 7.5h-204.8c-33.948 0-66.506 13.484-90.509 37.49-24.005 24.002-37.49 56.562-37.49 90.509s13.486 66.506 37.49 90.509c24.002 24.007 56.562 37.49 90.509 37.49h51.2v102.4h102.4v-102.4h128v-102.4h-281.6c-6.791 0-13.3-2.695-18.101-7.5-4.805-4.8-7.5-11.309-7.5-18.101s2.695-13.3 7.5-18.101c4.8-4.805 11.309-7.5 18.101-7.5h204.8c33.948 0 66.506-13.484 90.509-37.49 24.007-24.002 37.49-56.562 37.49-90.509s-13.484-66.506-37.49-90.509c-24.002-24.007-56.562-37.49-90.509-37.49h-51.2v-102.4h-102.4v102.4h-128v102.4z" />
<glyph unicode="&#xe913;" glyph-name="plus" data-tags="plus" d="M61.441 509.441h901.12c33.932 0 61.44-27.508 61.44-61.44s-27.508-61.44-61.44-61.44h-901.12c-33.932 0-61.44 27.508-61.44 61.44s27.508 61.44 61.44 61.44zM450.561-2.559v901.12c0 33.932 27.508 61.44 61.44 61.44s61.44-27.508 61.44-61.44v-901.12c0-33.932-27.508-61.44-61.44-61.44s-61.44 27.508-61.44 61.44z" />
<glyph unicode="&#xe914;" glyph-name="logout" data-tags="logout" d="M323.846 16.205h-215.897c-28.631 0-56.089 11.371-76.334 31.615s-31.615 47.703-31.615 76.334v647.691c0 28.631 11.371 56.089 31.615 76.334 20.245 20.241 47.703 31.615 76.334 31.615h215.897v-107.949h-215.897v-647.691h215.897v-107.949zM611.421 103.377l76.644 75.995-211.526 213.361h493.489c14.314 0 28.043 5.686 38.163 15.809 10.123 10.12 15.809 23.849 15.809 38.163 0 14.317-5.686 28.046-15.809 38.166-10.12 10.123-23.849 15.809-38.163 15.809h-494.512l214.601 213.038-75.563 76.644-345.438-342.036 342.305-344.949z" />
<glyph unicode="&#xe915;" glyph-name="pass-repeat" data-tags="pass-repeat" d="M774.716 681.208l-62.101 62.101-279.233-279.233 62.101-62.101zM961.458 743.308l-465.974-465.974-184.1 183.659-62.101-62.101 246.201-246.201 528.516 528.516zM0 398.892l246.201-246.201 62.101 62.101-245.76 246.201z" />
<glyph unicode="&#xe916;" glyph-name="done" data-tags="done" d="M325.819 221.091l-244.364 244.364-81.454-81.454 325.818-325.818 698.182 698.182-81.454 81.454z" />
<glyph unicode="&#xe917;" glyph-name="gift" data-tags="gift" d="M769.63 872.544c-25.27 25.274-60.182 40.907-98.746 40.907s-73.476-15.633-98.746-40.907l-65.769-65.816q-4.189-4.189-8.006-8.657-3.77 4.655-8.006 8.657l-65.816 65.816c-25.085 24.252-59.301 39.197-97.007 39.197-77.119 0-139.636-62.518-139.636-139.636 0-37.706 14.945-71.921 39.236-97.046l-0.038 0.039 40.867-40.913h-267.962v-279.273h93.091v-372.364h837.819v372.364h93.091v279.273h-295.238l40.913 40.913c25.247 25.265 40.86 60.159 40.86 98.7 0 38.564-15.633 73.476-40.907 98.746v0zM638 675.098l65.816 65.816c8.767 8.475 14.21 20.342 14.21 33.48 0 25.706-20.84 46.546-46.546 46.546-13.138 0-25.004-5.443-33.467-14.197l-65.829-65.829c-8.084-8.362-13.066-19.767-13.066-32.336 0-25.706 20.84-46.546 46.546-46.546 12.568 0 23.974 4.982 32.349 13.079l-0.013-0.013zM424.542 740.913l-65.816 65.816c-8.362 8.084-19.767 13.066-32.336 13.066-25.706 0-46.546-20.84-46.546-46.546 0-12.568 4.982-23.974 13.079-32.349l65.803-65.803c8.475-8.767 20.342-14.21 33.48-14.21 25.706 0 46.546 20.84 46.546 46.546 0 13.138-5.443 25.004-14.197 33.467l-0.013 0.013zM930.91 541.093v-93.091h-837.819v93.091zM554.683 354.912h283.136v-279.273h-283.136zM469.365 354.912v-279.273h-283.183v279.273z" />
<glyph unicode="&#xe918;" glyph-name="unvisible" data-tags="unvisible" d="M512.233 704.116c128.589 0 232.833-104.242 232.833-232.833v0c-0.028-30.732-6.186-60.017-17.316-86.711l0.552 1.494 135.975-135.975c69.77 58.439 124.328 132.745 158.409 217.489l1.314 3.701c-82.643 206.144-280.725 349.106-512.214 349.249h-0.017c-0.048 0-0.104 0-0.161 0-66.444 0-130.096-11.95-188.925-33.818l3.75 1.221 100.584-100.584c25.199 10.578 54.486 16.736 85.206 16.764h0.011zM46.568 831.243l127.592-127.592c-76.75-59.981-136.441-138.384-172.845-228.675l-1.315-3.691c82.612-206.234 280.804-349.245 512.399-349.245 73.399 0 143.444 14.364 207.476 40.437l-3.682-1.325 19.558-19.558 136.439-135.975 59.138 59.138-825.625 825.625zM304.080 573.73l72.178-72.178c-2.303-9.069-3.657-19.494-3.725-30.225v-0.043c0-77.154 62.545-139.699 139.699-139.699v0c10.774 0.068 21.2 1.422 31.173 3.917l-0.906-0.192 72.178-72.178c-30.282-15.574-66.077-24.703-104.006-24.703-127.741 0-231.296 103.555-231.296 231.296 0 37.928 9.129 73.724 25.31 105.309l-0.607-1.304zM504.782 610.052l146.684-146.684 0.931 7.451c0 77.154-62.545 139.699-139.699 139.699v0z" />
<glyph unicode="&#xe919;" glyph-name="visible" data-tags="visible" d="M512.001 797.077c-231.403-0.142-429.395-143.040-510.686-345.387l-1.315-3.704c82.508-206.121 280.561-349.064 512-349.064s429.492 142.944 510.689 345.361l1.311 3.703c-82.606 206.051-280.597 348.949-511.983 349.091h-0.017zM512.001 215.259c-128.532 0-232.727 104.196-232.727 232.727s104.196 232.727 232.727 232.727c128.532 0 232.727-104.196 232.727-232.727v0c0-128.532-104.196-232.727-232.727-232.727v0zM512.001 587.622c-77.119 0-139.636-62.518-139.636-139.636s62.518-139.636 139.636-139.636c77.119 0 139.636 62.518 139.636 139.636v0c0 77.119-62.518 139.636-139.636 139.636v0z" />
<glyph unicode="&#xe91a;" glyph-name="mail" data-tags="mail" d="M511.988 959.988c-282.763 0-511.988-229.225-511.988-511.988s229.225-511.988 511.988-511.988v0h255.994v102.398h-255.994c-225.056 2.85-406.74 184.536-409.587 409.32l-0.003 0.27c2.85 225.056 184.536 406.74 409.32 409.587l0.27 0.003c225.056-2.85 406.74-184.536 409.587-409.32l0.003-0.27v-73.214c-1.141-42.696-34.459-77.257-76.525-80.366l-0.273-0.016c-42.339 3.125-75.657 37.686-76.796 80.271l-0.002 0.111v73.214c0 0.016 0 0.035 0 0.054 0 141.382-114.612 255.994-255.994 255.994s-255.994-114.612-255.994-255.994c0-141.382 114.612-255.994 255.994-255.994 70.804 0 134.895 28.745 181.239 75.202l0.005 0.005c34.942-45.921 89.626-75.262 151.163-75.262 0.135 0 0.271 0 0.406 0h-0.021c99.059 0.365 179.22 80.751 179.22 179.86 0 1.027-0.009 2.051-0.026 3.074l0.002-0.154v73.214c0 282.763-229.225 511.988-511.988 511.988v0zM511.988 294.404c-84.829 0-153.596 68.767-153.596 153.596s68.767 153.596 153.596 153.596c84.829 0 153.596-68.767 153.596-153.596v0c0-84.829-68.767-153.596-153.596-153.596v0z" />
<glyph unicode="&#xe91b;" glyph-name="user" data-tags="user" d="M739.556 732.444v0c0 125.676-101.88 227.556-227.556 227.556v0c-125.676 0-227.556-101.88-227.556-227.556s101.88-227.556 227.556-227.556c125.676 0 227.556 101.88 227.556 227.556zM625.777 732.444c0-62.837-50.94-113.777-113.777-113.777s-113.777 50.94-113.777 113.777c0 62.837 50.94 113.777 113.777 113.777v0c62.837 0 113.777-50.94 113.777-113.777v0zM739.556 277.333c0 31.419-25.471 56.889-56.889 56.889v0h-341.333c-31.419 0-56.889-25.471-56.889-56.889v0-341.333h-113.777v341.333c0 94.256 76.411 170.667 170.667 170.667v0h341.333c94.256 0 170.667-76.411 170.667-170.667v0-341.333h-113.777z" />
<glyph unicode="&#xe91c;" glyph-name="close" data-tags="close" d="M118.467 938.335c-12.528 13.349-30.283 21.664-49.981 21.664-37.824 0-68.486-30.662-68.486-68.486 0-19.697 8.315-37.452 21.628-49.946l0.037-0.034 395.112-395.112-395.112-395.112c-11.464-12.213-18.506-28.695-18.506-46.822 0-37.824 30.662-68.486 68.486-68.486 18.126 0 34.608 7.043 46.859 18.54l-0.037-0.034 395.112 395.112 395.112-395.112c12.213-11.464 28.695-18.506 46.822-18.506 37.824 0 68.486 30.662 68.486 68.486 0 18.126-7.043 34.608-18.54 46.859l0.034-0.037-395.112 395.112 395.112 395.112c11.464 12.213 18.506 28.695 18.506 46.822 0 37.824-30.662 68.486-68.486 68.486-18.126 0-34.608-7.043-46.859-18.54l0.037 0.034-395.112-395.112z" />
<glyph unicode="&#xe91d;" glyph-name="arrow" data-tags="arrow" d="M800.199 371.78c0.459-0.007 1-0.011 1.542-0.011 60.349 0 109.384 48.434 110.358 108.551l0.001 0.091v434.739h111.9v-434.526c-1.948-120.417-100.019-217.285-220.717-217.285-1.085 0-2.167 0.008-3.248 0.024l0.163-0.002h-576.737l211.66-205.717-79.128-76.794-355.993 345.804 356.078 345.635 79.043-76.794-230.126-223.716z" />
<glyph unicode="&#xe91e;" glyph-name="lock" data-tags="lock" d="M819.161 521.135c1.066 0.027 2.321 0.043 3.58 0.043 81.553 0 147.909-65.061 149.997-146.109l0.004-0.194v-292.52c-2.065-81.265-68.432-146.353-150.003-146.353-1.258 0-2.513 0.015-3.764 0.046l0.186-0.004h-614.323c-1.066-0.027-2.321-0.043-3.58-0.043-81.553 0-147.909 65.061-149.997 146.109l-0.004 0.194v292.52c2.093 81.242 68.449 146.302 150.001 146.302 1.259 0 2.514-0.015 3.765-0.046l-0.185 0.004v146.311c4.185 162.484 136.899 292.605 300.003 292.605 2.517 0 5.026-0.031 7.529-0.093l-0.371 0.007c2.132 0.054 4.641 0.085 7.158 0.085 163.104 0 295.817-130.12 299.995-292.218l0.008-0.387zM512 862.646l0.247-0.005c-1.666 0.041-3.338 0.062-5.013 0.062-108.82 0-197.348-86.881-200.008-195.309v-146.055h409.548v146.259l-0.005 0.257c-2.767 108.081-91.249 194.847-199.998 194.847-1.678 0-3.351-0.021-4.771-0.057zM819.161 423.867h-614.323c-0.355 0.009-0.774 0.014-1.194 0.014-27.179 0-49.293-21.677-49.999-48.685l-0.001-0.065v-292.52c0.396-27.32 22.635-49.314 50.011-49.314 0.416 0 0.83 0.005 1.244 0.015l-0.061-0.001h614.323c0.355-0.009 0.774-0.014 1.194-0.014 27.179 0 49.293 21.677 49.999 48.685l0.001 0.065v292.776c-0.679 27.096-22.805 48.802-50.002 48.802-0.419 0-0.837-0.005-1.254-0.015l0.062 0.001z" />
<glyph unicode="&#xe91f;" glyph-name="key" data-tags="key" d="M180.69 680.727l-0.161-0.002c1.069 0.019 2.14 0.029 3.214 0.029 97.043 0 175.919-77.784 177.683-174.572h662.574v-232.727h-120.506v116.364h-60.23v-116.364h-120.459v116.364l-361.428-0.165c-1.762-96.622-80.638-174.406-177.68-174.406-1.057 0-2.112 0.009-3.007 0.025l0.158 0.002c-1.053-0.018-2.108-0.028-3.165-0.028-97.043 0-175.918 77.784-177.683 174.571v116.364l0.002 0.165c1.762 96.622 80.638 174.406 177.68 174.406 1.057 0 2.112-0.009 3.007-0.025zM240.92 389.818v116.364c-1.308 32.255-27.773 57.908-60.23 57.908s-58.922-25.653-60.226-57.79l-0.004-0.118v-116.364c1.308-32.255 27.773-57.908 60.23-57.908s58.922 25.653 60.226 57.79l0.004 0.118z" />
<glyph unicode="&#xe920;" glyph-name="login-error" data-tags="login-error" horiz-adv-x="967" d="M400.922 827.874v0c0 72.971-59.154 132.126-132.126 132.126v0c-72.971 0-132.126-59.154-132.126-132.126s59.154-132.126 132.126-132.126c72.971 0 132.126 59.154 132.126 132.126zM334.859 827.874c0-36.486-29.577-66.063-66.063-66.063s-66.063 29.577-66.063 66.063c0 36.486 29.577 66.063 66.063 66.063v0c36.486 0 66.063-29.577 66.063-66.063v0zM400.922 563.623c0 18.242-14.789 33.031-33.031 33.031v0h-198.188c-18.242 0-33.031-14.789-33.031-33.031v0-198.188h-66.063v198.188c0 54.728 44.366 99.094 99.094 99.094v0h198.188c54.728 0 99.094-44.366 99.094-99.094v0-198.188h-66.063zM797.297 313.543c0.687 0.017 1.497 0.028 2.31 0.028 52.62 0 95.434-41.978 96.781-94.273l0.002-0.125v-188.741c-1.332-52.434-44.154-94.431-96.785-94.431-0.812 0-1.621 0.010-2.428 0.030l0.12-0.002h-396.375c-0.687-0.017-1.497-0.028-2.31-0.028-52.62 0-95.434 41.978-96.781 94.273l-0.002 0.125v188.741c1.351 52.419 44.165 94.397 96.785 94.397 0.812 0 1.622-0.010 2.429-0.030l-0.12 0.002v94.403c2.7 104.838 88.33 188.796 193.569 188.796 1.625 0 3.243-0.020 4.858-0.059l-0.239 0.005c1.375 0.035 2.995 0.055 4.618 0.055 105.239 0 190.869-83.958 193.564-188.546l0.005-0.25zM599.11 533.895l0.159-0.003c-1.075 0.027-2.153 0.039-3.234 0.039-70.213 0-127.334-56.057-129.049-126.018v-94.238h264.251v94.371l-0.003 0.166c-1.785 69.737-58.876 125.72-129.044 125.72-1.082 0-2.162-0.013-3.078-0.037zM797.297 250.784h-396.375c-0.229 0.006-0.499 0.009-0.77 0.009-17.536 0-31.806-13.986-32.261-31.413l-0.001-0.042v-188.741c0.255-17.627 14.605-31.818 32.268-31.818 0.268 0 0.535 0.003 0.802 0.009l-0.039-0.001h396.375c0.229-0.006 0.499-0.009 0.77-0.009 17.536 0 31.806 13.986 32.261 31.413l0.001 0.042v188.906c-0.438 17.483-14.714 31.487-32.262 31.487-0.271 0-0.54-0.003-0.809-0.010l0.039 0.001z" />
<glyph unicode="&#xe921;" glyph-name="arrow-left" data-tags="arrow-left" horiz-adv-x="585" d="M585.073 857.502l-97.476 102.376-487.527-511.878 487.527-511.878 97.476 102.376-389.978 409.502 389.978 409.502z" />
<glyph unicode="&#xe922;" glyph-name="arrow-right" data-tags="arrow-right" horiz-adv-x="585" d="M0 38.4l97.499-102.4 487.643 512-487.643 512-97.499-102.4 390.071-409.6-390.071-409.6z" />
<glyph unicode="&#xe923;" glyph-name="arrow-up" data-tags="arrow-up" d="M921.6 155.429l102.4 97.499-512 487.643-512-487.643 102.4-97.499 409.6 390.071 409.6-390.071z" />
<glyph unicode="&#xe924;" glyph-name="arrow-down" data-tags="arrow-down" d="M102.4 740.571l-102.4-97.499 512-487.643 512 487.643-102.4 97.499-409.6-390.071-409.6 390.071z" />
<glyph unicode="&#xe925;" glyph-name="random" data-tags="random" d="M673.723 574.105l-142.223 355.134c-7.427 18.182-24.976 30.76-45.462 30.76-6.557 0-12.813-1.289-18.529-3.626l0.327 0.118-355.156-142.244c-18.179-7.453-30.751-25.014-30.751-45.51 0-6.542 1.28-12.786 3.606-18.493l-0.118 0.328 142.244-355.123c7.43-18.184 24.981-30.764 45.472-30.764 6.562 0 12.823 1.29 18.541 3.63l-0.327-0.118 355.113 142.244c18.18 7.446 30.754 25.003 30.754 45.496 0 6.543-1.282 12.789-3.608 18.496l0.118-0.328zM632.314 545.671l-355.069-142.244c-1.22-0.52-2.637-0.822-4.126-0.822-1.566 0-3.054 0.335-4.397 0.938l0.068-0.027c-2.698 1.167-4.791 3.306-5.871 5.965l-0.026 0.073-142.234 355.123c-0.501 1.215-0.793 2.627-0.793 4.106 0 4.614 2.833 8.565 6.855 10.209l0.073 0.027 355.123 142.244c1.214 0.5 2.623 0.791 4.1 0.791 4.608 0 8.556-2.828 10.203-6.843l0.027-0.073 142.244-355.134c0.496-1.209 0.783-2.611 0.783-4.081 0-4.626-2.85-8.587-6.889-10.222l-0.075-0.027zM300.019 757.629c-6.531 2.869-14.144 4.539-22.145 4.539-31.090 0-56.293-25.203-56.293-56.293s25.203-56.293 56.293-56.293c23.084 0 42.923 13.894 51.609 33.777l0.141 0.362c2.939 6.579 4.65 14.256 4.65 22.333 0 23.071-13.965 42.88-33.903 51.435l-0.365 0.14zM294.74 698.647c-2.879-6.604-9.351-11.137-16.882-11.137-7.683 0-14.264 4.718-17.004 11.416l-0.045 0.122c-0.814 2.004-1.286 4.329-1.286 6.764 0 10.138 8.187 18.365 18.31 18.428h0.005c0.004 0 0.009 0 0.015 0 10.136 0 18.352-8.217 18.352-18.352 0-2.617-0.547-5.106-1.535-7.359l0.046 0.118zM503.457 670.561c-6.534 2.871-14.149 4.542-22.156 4.542-31.096 0-56.304-25.207-56.304-56.304s25.207-56.304 56.304-56.304c23.088 0 42.931 13.897 51.619 33.783l0.141 0.363c2.86 6.527 4.526 14.133 4.526 22.129 0 23.098-13.893 42.951-33.778 51.66l-0.362 0.141zM498.177 611.579c-2.877-6.619-9.358-11.165-16.901-11.165-10.148 0-18.374 8.226-18.374 18.374s8.226 18.374 18.374 18.374c0.016 0 0.031 0 0.047 0h-0.003c0.003 0 0.005 0 0.008 0 2.599 0 5.070-0.546 7.306-1.531l-0.117 0.046c6.595-2.904 11.115-9.381 11.115-16.915 0-2.594-0.537-5.062-1.503-7.302l0.046 0.119zM893.095 416.5h-382.56c-27.031-0.037-48.934-21.943-48.965-48.973v-382.563c0.031-27.030 21.935-48.934 48.962-48.965h382.563c27.033 0.031 48.939 21.934 48.976 48.961v382.564c-0.031 27.037-21.939 48.945-48.973 48.976h-0.003zM904.13-15.036c-0.007-6.089-4.944-11.024-11.035-11.024h-382.56c-6.087 0.007-11.018 4.938-11.024 11.024v0 382.56c0 6.091 4.935 11.029 11.024 11.035h382.56c6.095 0 11.035-4.94 11.035-11.035v0zM591.186 334.581c-31.096 0-56.304-25.207-56.304-56.304s25.207-56.304 56.304-56.304c31.096 0 56.304 25.207 56.304 56.304v0c-0.037 31.081-25.222 56.267-56.3 56.304h-0.004zM591.186 259.914c-10.142 0-18.363 8.221-18.363 18.363s8.221 18.363 18.363 18.363c10.142 0 18.363-8.221 18.363-18.363v0c-0.037-10.127-8.236-18.327-18.359-18.363h-0.004zM812.455 334.581c-31.096 0-56.304-25.207-56.304-56.304s25.207-56.304 56.304-56.304c31.096 0 56.304 25.207 56.304 56.304v0c-0.037 31.081-25.222 56.267-56.3 56.304h-0.004zM812.455 259.914c-10.142 0-18.363 8.221-18.363 18.363s8.221 18.363 18.363 18.363c10.142 0 18.363-8.221 18.363-18.363v0c-0.037-10.127-8.236-18.327-18.359-18.363h-0.004zM591.186 130.515c-31.096 0-56.304-25.207-56.304-56.304s25.207-56.304 56.304-56.304c31.096 0 56.304 25.207 56.304 56.304 0 0.004 0 0.008 0 0.011v0c-0.043 31.076-25.226 56.256-56.3 56.293h-0.004zM591.186 55.848c-10.142 0-18.363 8.221-18.363 18.363s8.221 18.363 18.363 18.363c10.138 0 18.356-8.215 18.363-18.352v0c-0.031-10.131-8.233-18.337-18.359-18.374h-0.004zM812.455 130.515c-31.096 0-56.304-25.207-56.304-56.304s25.207-56.304 56.304-56.304c31.096 0 56.304 25.207 56.304 56.304 0 0.004 0 0.008 0 0.011v0c-0.043 31.076-25.226 56.256-56.3 56.293h-0.004zM812.455 55.848c-10.142 0-18.363 8.221-18.363 18.363s8.221 18.363 18.363 18.363c10.119 0 18.327-8.184 18.363-18.294v-0.004c0 0 0 0 0 0 0-10.155-8.214-18.392-18.359-18.428h-0.004z" />
</font>
</defs>
</svg>
